<?xml version="1.0" standalone="no"?>
<!DOCTYPE svg PUBLIC "-//W3C//DTD SVG 1.1//EN" "http://www.w3.org/Graphics/SVG/1.1/DTD/svg11.dtd" >
<svg xmlns="http://www.w3.org/2000/svg">
<metadata>
This is a custom SVG webfont generated by Font Squirrel.
Copyright   : Copyright c 2003 by Bitstream Inc All Rights Reserved
Foundry     : Bitstream Inc
Foundry URL : httpwwwbitstreamcom
</metadata>
<defs>
<font id="webfont1abckMhc" horiz-adv-x="1423" >
<font-face units-per-em="2048" ascent="1556" descent="-492" />
<missing-glyph horiz-adv-x="712" />
<glyph unicode=" "  horiz-adv-x="712" />
<glyph unicode="&#x09;" horiz-adv-x="712" />
<glyph unicode="&#xa0;" horiz-adv-x="712" />
<glyph unicode="!" horiz-adv-x="933" d="M141 0l70 356h360l-69 -356h-361zM291 502l28 418l113 573h361l-113 -573l-131 -418h-258z" />
<glyph unicode="&#x22;" horiz-adv-x="1064" d="M195 938v555h237v-555h-237zM635 938v555h237v-555h-237z" />
<glyph unicode="#" d="M133 383l53 215h281l70 274h-283l53 213h285l96 385h223l-96 -385h264l97 385h221l-97 -385h297l-53 -213h-297l-69 -274h297l-54 -215h-295l-96 -383h-221l96 383h-264l-96 -383h-223l96 383h-285zM690 598h264l70 274h-264z" />
<glyph unicode="$" d="M55 86l49 262q94 -53 205 -86t228 -35l61 312q-207 31 -305 112q-96 80 -96 223q0 199 149 322q150 121 406 131l43 229h161l-43 -227q115 -6 195 -22q98 -18 182 -45l-49 -254q-66 37 -158 61q-95 25 -215 31l-57 -289q215 -37 315 -117q102 -80 103 -215 q0 -221 -150 -346q-147 -123 -426 -133l-57 -301h-162l60 301q-137 6 -238 27q-105 20 -201 59zM522 948q0 -49 33 -76q35 -29 100 -36l52 262q-86 -10 -136 -49q-49 -42 -49 -101zM698 227q104 6 154 47q53 43 53 119q0 52 -37 80q-35 27 -114 39z" />
<glyph unicode="%" horiz-adv-x="2050" d="M113 1018q0 219 133 362q131 139 348 140q157 0 252 -86q94 -86 94 -226q0 -223 -133 -362t-348 -139q-157 0 -252 86q-94 86 -94 225zM287 -29l1235 1549h245l-1235 -1549h-245zM367 1051q0 -90 30.5 -133.5t91.5 -43.5q88 0 142 84q55 86 55 222q0 86 -30.5 129 t-92.5 43q-88 0 -141 -84q-55 -86 -55 -217zM1114 285q0 221 133 360t346 139q157 0 252 -86q94 -86 94 -225q0 -223 -133 -362.5t-346 -139.5q-157 0 -252 86q-94 87 -94 228zM1368 315q0 -88 31 -131t92 -43q86 0 141 84q55 82 56 219q0 86 -31 129t-92 43q-86 0 -142 -84 q-55 -82 -55 -217z" />
<glyph unicode="&#x26;" horiz-adv-x="1785" d="M57 416q0 154 94.5 278.5t297.5 239.5q-29 49 -39 90q-12 45 -13 92q0 176 152 291q150 113 389 113q98 0 186 -15q95 -15 197 -43l-53 -278q-90 51 -166 71q-84 23 -158 23q-86 0 -135 -37q-51 -39 -51 -96q0 -39 30 -96q35 -66 89 -134l297 -374q61 66 106 151 q46 89 74 203h311q-43 -172 -123 -317q-82 -147 -199 -256l256 -322h-438l-84 106q-119 -68 -235 -102q-113 -33 -242 -33q-244 0 -393.5 123t-149.5 322zM412 483q0 -106 75 -180q77 -74 191 -74q63 0 119 21q66 25 118 63l-340 430q-82 -53 -122 -118q-41 -64 -41 -142z " />
<glyph unicode="'" horiz-adv-x="626" d="M195 938v555h237v-555h-237z" />
<glyph unicode="(" horiz-adv-x="935" d="M158 373q0 293 127 590q123 289 383 591h290q-236 -313 -348 -614q-115 -307 -114 -608q0 -154 26 -299q29 -154 82 -303h-291q-77 166 -116 325q-39 156 -39 318z" />
<glyph unicode=")" horiz-adv-x="935" d="M-55 -270q236 313 348 614q115 307 115 610q0 158 -27 299q-29 154 -82 301h293q78 -166 115 -323q39 -168 38 -320q0 -295 -127 -592q-126 -295 -380 -589h-293z" />
<glyph unicode="*" horiz-adv-x="1069" d="M41 870l334 174l-334 173l76 141l334 -182v344h170v-344l333 182l76 -141l-330 -173l330 -174l-76 -141l-333 184v-344h-170v344l-334 -184z" />
<glyph unicode="+" horiz-adv-x="1714" d="M217 524v236h522v524h238v-524h522v-236h-522v-524h-238v524h-522z" />
<glyph unicode="," horiz-adv-x="776" d="M-70 -291l174 373l60 305h360l-59 -305l-322 -373h-213z" />
<glyph unicode="-" horiz-adv-x="849" d="M51 444l58 291h628l-57 -291h-629z" />
<glyph unicode="." horiz-adv-x="776" d="M94 0l76 387h360l-75 -387h-361z" />
<glyph unicode="/" horiz-adv-x="747" d="M-197 -190l854 1683h232l-854 -1683h-232z" />
<glyph unicode="0" d="M74 510q0 199 55 385q55 190 152 328q106 152 245 223q141 74 320 74q242 0 375 -140q131 -137 131 -397q0 -200 -56 -387q-55 -188 -153 -330q-102 -150 -244 -221q-144 -74 -319 -74q-246 0 -375 140q-131 141 -131 399zM446 451q0 -111 41 -164.5t125 -53.5 q78 0 136 46q61 49 100 135q35 80 51 143q22 80 43 191q16 76 27 163q8 66 8 129q0 113 -39 164q-41 53 -125 53q-76 0 -137 -45q-58 -43 -98 -135q-25 -53 -54 -147q-25 -82 -43 -182q-16 -78 -26 -166q-9 -68 -9 -131z" />
<glyph unicode="1" d="M88 0l53 266h340l187 965l-363 -72l51 262l361 72h366l-237 -1227h338l-51 -266h-1045z" />
<glyph unicode="2" d="M16 0l56 285l635 479q106 82 159.5 162t53.5 159q0 82 -56 127q-53 45 -157 45q-88 0 -211 -38q-113 -35 -265 -115l64 317q137 49 266 74q131 25 260 25q227 0 358.5 -98.5t131.5 -268.5q0 -145 -80 -266q-82 -123 -352 -324l-373 -280h649l-55 -283h-1084z" />
<glyph unicode="3" d="M0 45l57 297q88 -51 195 -80q109 -29 209 -29q172 0 268 64q98 63 98 170q0 88 -75 133q-78 45 -226 45h-153l49 248h162q158 0 247 57q92 57 93 154q0 78 -63.5 117t-184.5 39q-78 0 -184.5 -23t-208.5 -63l55 282q121 33 233 47q121 16 226 17q250 0 381 -84 q127 -82 127 -250q0 -152 -88 -248q-90 -98 -250 -133q111 -25 176 -105q63 -78 63 -194q0 -248 -196 -391q-195 -143 -541 -144q-131 0 -248 18.5t-221 55.5z" />
<glyph unicode="4" d="M-2 272l65 330l771 891h438l-185 -942h213l-53 -279h-213l-53 -272h-365l54 272h-672zM313 551h410l121 614z" />
<glyph unicode="5" d="M27 70l59 303q117 -76 215 -107q100 -33 213 -33q160 0 254 82t94 217q0 96 -71 152q-74 57 -197 57q-80 0 -182 -22q-104 -23 -213 -66l163 840h957l-55 -283h-650l-45 -231q41 12 93 18q47 6 94 7q229 0 358 -104.5t129 -289.5q0 -295 -199 -467q-200 -172 -540 -172 q-127 0 -243.5 25t-233.5 74z" />
<glyph unicode="6" d="M102 522q0 205 62 389q59 180 174 320q120 144 283 215q166 72 368 72q88 0 182 -17q80 -14 181 -47l-54 -276q-88 43 -168 65q-84 23 -161 23q-188 0 -301 -101q-115 -102 -140 -280q74 51 160 76q82 25 176 24q182 0 301 -108q117 -106 117 -279q0 -279 -180 -453 q-182 -176 -465 -176q-254 0 -395 144q-140 141 -140 409zM481 401q0 -92 45 -139q47 -49 125 -49q113 0 186.5 92t73.5 234q0 92 -45 147q-43 51 -125 51q-113 0 -186.5 -94.5t-73.5 -241.5z" />
<glyph unicode="7" d="M160 0l790 1210h-708l53 283h1126l-45 -219l-831 -1274h-385z" />
<glyph unicode="8" d="M45 344q0 160 104.5 278.5t292.5 172.5q-111 47 -161 116q-53 72 -54 174q0 203 166 320q164 115 461 115q240 0 367 -88q129 -88 129 -248q0 -141 -90 -244q-86 -98 -259 -145q123 -45 181 -125q57 -78 57 -201q0 -227 -180 -365q-176 -133 -492 -133q-248 0 -385 98.5 t-137 274.5zM414 393q0 -82 51 -131t139 -49q121 0 197 78q78 82 78 196q0 82 -52 131q-53 49 -139 50q-117 0 -196 -80q-78 -78 -78 -195zM594 1061q0 -66 45 -111q41 -41 117 -41q100 0 164 60q61 59 61 157q0 66 -45 111q-41 41 -117 41q-100 0 -164 -59 q-61 -60 -61 -158z" />
<glyph unicode="9" d="M84 33l53 276q84 -45 168 -67q76 -20 162 -21q188 0 301 101q115 102 139 280q-74 -51 -159 -76q-84 -25 -175 -24q-182 0 -301 108q-117 106 -116 279q0 279 180 452q182 176 465 177q258 0 395 -144q139 -145 139 -409q0 -205 -61 -390q-61 -182 -176 -319 q-120 -144 -283 -215q-166 -72 -366 -72q-90 0 -185 17q-88 14 -180 47zM524 948q0 -95 43 -147q43 -51 127 -51q113 0 186.5 94t73.5 241q0 90 -43 139.5t-125 49.5q-115 0 -188.5 -92.5t-73.5 -233.5z" />
<glyph unicode=":" horiz-adv-x="817" d="M84 0l76 387h360l-76 -387h-360zM227 733l74 387h361l-74 -387h-361z" />
<glyph unicode=";" horiz-adv-x="817" d="M-72 -291l172 373l60 305h360l-59 -305l-320 -373h-213zM227 733l74 387h361l-74 -387h-361z" />
<glyph unicode="&#x3c;" horiz-adv-x="1714" d="M217 524v236l1282 463v-250l-964 -332l964 -330v-250z" />
<glyph unicode="=" horiz-adv-x="1714" d="M217 295v237h1282v-237h-1282zM217 752v235h1282v-235h-1282z" />
<glyph unicode="&#x3e;" horiz-adv-x="1714" d="M217 61v250l965 330l-965 332v250l1282 -463v-236z" />
<glyph unicode="?" horiz-adv-x="1187" d="M213 0l70 356h360l-70 -356h-360zM225 1124l62 314q102 35 231 61q100 20 203 21q193 0 303.5 -86t110.5 -234q0 -117 -53.5 -213t-180.5 -196l-76 -60q-84 -63 -108 -100q-29 -41 -37 -82l-8 -45h-361l8 49q16 80 60 143q45 66 174 164l74 58q74 57 114 114 q37 53 37 107q0 57 -41 88q-40 31 -116 30q-76 0 -181 -34q-101 -34 -215 -99z" />
<glyph unicode="@" horiz-adv-x="2048" d="M92 434q0 182 60 340q61 166 174 301q147 176 352 271q203 94 442 94q162 0 307 -47q143 -47 252 -138q102 -88 162 -208q57 -117 57 -250q0 -315 -204 -512q-207 -197 -537 -197q-2 0 -6 -1t-8 -1h-13h-8l-2 1q-2 1 -4 1l31 158q-45 -74 -121 -117q-70 -41 -164 -41 q-143 0 -225 94t-82 262q0 221 141 381q143 162 340 162q84 0 146 -43q59 -43 82 -110l24 133h203l-133 -693q150 20 252 164t102 332q0 215 -164 348q-166 135 -428 135q-199 0 -364 -75q-174 -78 -287 -220q-90 -106 -139 -241q-49 -131 -49 -275q0 -268 165 -440 q164 -170 426 -170q117 0 234 43q111 41 219 127l109 -158q-152 -100 -289 -147q-145 -49 -285 -49q-131 0 -260 41q-121 39 -223 118q-139 106 -213 267q-72 155 -72 360zM776 446q0 -84 41 -129q40 -43 117 -43q106 0 180 100.5t74 246.5q0 88 -39 133q-41 47 -115 47 q-104 0 -182 -105q-76 -103 -76 -250z" />
<glyph unicode="A" horiz-adv-x="1583" d="M-133 0l844 1493h440l264 -1493h-366l-43 272h-596l-148 -272h-395zM555 543h401l-90 575z" />
<glyph unicode="B" horiz-adv-x="1560" d="M43 0l291 1493h577q262 0 394 -78q127 -76 127 -241q0 -135 -74 -240t-197 -135q98 -29 152 -103q53 -76 53 -184q0 -240 -180 -377q-178 -135 -504 -135h-639zM477 262h228q133 0 202 64q72 66 72 180q0 74 -49 110.5t-150 36.5h-227zM604 915h215q104 0 161.5 51.5 t57.5 143.5q0 59 -41 90q-40 31 -116 31h-215z" />
<glyph unicode="C" horiz-adv-x="1501" d="M74 573q0 180 57 338q57 156 168 289q135 156 315 238q182 82 398 82q121 0 233 -27q115 -27 238 -84l-62 -309q-94 72 -192 106q-100 35 -209 35q-230 0 -387 -178q-156 -176 -156 -445q0 -170 96 -270q95 -98 265 -98q101 0 215 37q106 35 254 114l-66 -331 q-138 -49 -264 -74q-125 -25 -242 -25q-303 0 -481 164q-180 166 -180 438z" />
<glyph unicode="D" horiz-adv-x="1699" d="M43 0l291 1493h405q285 0 435 -35q145 -35 241 -115q94 -78 146 -196q49 -117 49 -262q0 -203 -84 -383q-83 -178 -234 -301q-135 -111 -307 -156t-536 -45h-406zM485 291h138q268 0 425.5 151.5t157.5 407.5q0 172 -102.5 262t-304.5 90h-135z" />
<glyph unicode="E" horiz-adv-x="1398" d="M43 0l291 1493h1038l-57 -291h-653l-54 -278h615l-58 -291h-614l-66 -342h674l-55 -291h-1061z" />
<glyph unicode="F" horiz-adv-x="1398" d="M43 0l291 1493h1038l-57 -291h-653l-54 -278h615l-58 -291h-614l-123 -633h-385z" />
<glyph unicode="G" horiz-adv-x="1679" d="M74 573q0 182 57 340t170 289q138 160 326 240q182 78 428 78q139 0 270 -27q133 -27 268 -84l-59 -309q-133 76 -238 106q-121 35 -235 35q-258 0 -420 -172q-162 -170 -162 -442q0 -182 94 -279q94 -98 267 -98q39 0 112 8q47 6 113 23l57 290h-235l49 258h598 l-139 -718q-147 -72 -303 -105q-162 -35 -336 -35q-319 0 -500 162q-182 164 -182 440z" />
<glyph unicode="H" horiz-adv-x="1712" d="M43 0l291 1493h385l-111 -569h568l110 569h385l-291 -1493h-385l123 633h-567l-123 -633h-385z" />
<glyph unicode="I" horiz-adv-x="761" d="M43 0l291 1493h385l-291 -1493h-385z" />
<glyph unicode="J" horiz-adv-x="761" d="M-340 -410l57 291h60q117 0 194 68q76 66 101 196l262 1348h385l-262 -1348q-58 -292 -228 -424q-168 -131 -491 -131h-78z" />
<glyph unicode="K" horiz-adv-x="1585" d="M43 0l291 1493h385l-105 -537l635 537h465l-856 -725l645 -768h-452l-502 623l-121 -623h-385z" />
<glyph unicode="L" horiz-adv-x="1304" d="M43 0l291 1493h385l-234 -1202h674l-55 -291h-1061z" />
<glyph unicode="M" horiz-adv-x="2037" d="M43 0l291 1493h473l192 -793l504 793h492l-291 -1493h-365l213 1102l-518 -815h-207l-206 815l-213 -1102h-365z" />
<glyph unicode="N" horiz-adv-x="1712" d="M43 0l291 1493h430l342 -1034l201 1034h364l-291 -1493h-430l-342 1034l-200 -1034h-365z" />
<glyph unicode="O" horiz-adv-x="1740" d="M74 569q0 180 55 344q57 166 162 293q133 162 305 236q180 78 410 78q298 0 479 -166q182 -166 182 -432q0 -181 -55 -344q-55 -164 -162 -291q-127 -156 -307 -238q-174 -78 -410 -78q-299 0 -477 164q-182 166 -182 434zM479 612q0 -176 78 -268q80 -94 221 -94 q115 0 205 49q86 47 152 143q57 84 92 205q33 111 33 234q0 176 -80 268t-230 92q-199 0 -336 -180q-135 -179 -135 -449z" />
<glyph unicode="P" horiz-adv-x="1499" d="M43 0l291 1493h639q238 0 369 -106.5t131 -299.5q0 -119 -43 -223q-43 -102 -127 -184t-211 -123q-119 -39 -310 -39h-254l-100 -518h-385zM584 797h213q139 0 209 63q72 66 71 187q0 82 -51 124.5t-149 42.5h-211z" />
<glyph unicode="Q" horiz-adv-x="1740" d="M74 569q0 184 55 346q55 164 162 291q127 158 305 236t410 78q298 0 479 -166q182 -166 182 -432q0 -317 -151 -551q-154 -238 -426 -344l229 -326h-367l-192 272q-4 0 -11.5 -1t-11.5 -1h-35q-113 0 -213 31q-98 29 -182 92q-111 80 -172 207q-61 125 -61 268zM479 612 q0 -176 78 -268q80 -94 221 -94q115 0 205 49q86 47 152 143q57 84 92 205q33 111 33 234q0 176 -80 268t-230 92q-199 0 -336 -180q-135 -179 -135 -449z" />
<glyph unicode="R" horiz-adv-x="1576" d="M43 0l291 1493h569q248 0 373 -92q127 -92 127 -271q0 -184 -100.5 -298.5t-270.5 -133.5q77 -15 129 -80q53 -66 92 -194l127 -424h-383l-112 371q-35 113 -82 153.5t-141 40.5h-123l-111 -565h-385zM590 831h162q131 0 198.5 61.5t67.5 178.5q0 74 -47 108.5t-146 34.5 h-159z" />
<glyph unicode="S" horiz-adv-x="1474" d="M31 78l61 325q135 -80 258 -114q133 -39 248 -39q135 0 215 53q82 55 82 139q0 55 -37 86t-162 62l-157 39q-168 41 -258 137q-86 92 -86 240q0 233 178 374q176 139 481 140q119 0 248 -19q127 -18 260 -55l-62 -316q-119 57 -223 84q-106 27 -215 27q-147 0 -225 -45 q-80 -45 -80 -125q0 -53 35 -80q37 -28 147 -55l158 -39q199 -49 291 -145.5t92 -243.5q0 -242 -184.5 -389.5t-495.5 -147.5q-150 0 -289 27t-280 80z" />
<glyph unicode="T" horiz-adv-x="1396" d="M98 1202l58 291h1376l-57 -291h-496l-234 -1202h-385l234 1202h-496z" />
<glyph unicode="U" horiz-adv-x="1662" d="M139 414q0 51 4 80q12 82 17 104l174 895h385l-174 -895q-12 -70 -15 -84q-4 -49 -4 -65q0 -96 52 -146q53 -49 157 -49q143 0 215 78q74 80 111 266l174 895h385l-174 -895q-66 -332 -246 -479.5t-520 -147.5q-266 0 -403.5 113t-137.5 330z" />
<glyph unicode="V" horiz-adv-x="1583" d="M156 1493h366l183 -1116l618 1116h397l-843 -1493h-459z" />
<glyph unicode="W" horiz-adv-x="2258" d="M219 1493h356l46 -1085l469 1085h366l49 -1085l453 1085h383l-643 -1493h-436l-50 1135l-483 -1135h-446z" />
<glyph unicode="X" horiz-adv-x="1576" d="M-104 0l671 766l-354 727h393l230 -469l409 469h418l-647 -737l366 -756h-391l-243 500l-437 -500h-415z" />
<glyph unicode="Y" horiz-adv-x="1482" d="M129 1493h385l254 -553l444 553h445l-737 -870l-121 -623h-385l121 623z" />
<glyph unicode="Z" horiz-adv-x="1484" d="M-53 0l45 238l971 964h-760l57 291h1256l-48 -238l-968 -964h805l-58 -291h-1300z" />
<glyph unicode="[" horiz-adv-x="935" d="M-20 -270l354 1826h620l-45 -225h-278l-269 -1376h281l-45 -225h-618z" />
<glyph unicode="\" horiz-adv-x="747" d="M145 1493h222l198 -1683h-221z" />
<glyph unicode="]" horiz-adv-x="935" d="M-57 -270l43 225h280l269 1376h-281l43 225h621l-355 -1826h-620z" />
<glyph unicode="^" horiz-adv-x="1714" d="M207 936l528 557h246l528 -557h-241l-410 301l-409 -301h-242z" />
<glyph unicode="_" horiz-adv-x="1024" d="M-20 -225h1064v-258h-1064v258z" />
<glyph unicode="`" horiz-adv-x="1024" d="M268 1638h283l209 -376h-197z" />
<glyph unicode="a" horiz-adv-x="1380" d="M35 276q0 215 166 328q164 113 477 113h211l4 28q4 20 4 21v10q0 63 -63.5 98t-184.5 35q-106 0 -215 -22q-92 -18 -201 -70l54 273q109 27 229 43q109 14 244 14q252 0 370 -86q121 -86 121 -260q0 -20 -4 -74q-2 -27 -14 -88l-125 -639h-358l30 166q-90 -102 -186 -148 q-100 -47 -213 -47q-162 0 -252 82q-94 84 -94 223zM403 340q0 -61 41 -96t111 -35q111 0 184.5 67.5t98.5 186.5l8 41h-172q-139 0 -203 -41q-68 -43 -68 -123z" />
<glyph unicode="b" horiz-adv-x="1464" d="M63 0l302 1556h360l-117 -600q82 96 172 143.5t197 47.5q188 0 299 -121q111 -120 110 -326q0 -133 -38 -251q-39 -117 -111 -222q-92 -127 -205 -190q-115 -66 -246 -66q-115 0 -196 47q-80 47 -135 144l-33 -162h-359zM518 428q0 -92 49 -145q49 -51 138 -52 q135 0 223 125t88 322q0 102 -47 155.5t-138 53.5q-141 0 -225 -127q-88 -133 -88 -332z" />
<glyph unicode="c" horiz-adv-x="1212" d="M76 426q0 135 53 266q51 127 150 232q104 111 249 168q141 55 326 55q82 0 170 -16.5t166 -45.5l-57 -292q-71 49 -142 73q-70 25 -137 25q-176 0 -286.5 -117t-110.5 -301q0 -117 69 -182q66 -63 195 -64q86 0 166 24.5t153 74.5l-55 -293q-94 -33 -178 -47.5 t-182 -14.5q-266 0 -406 119q-143 121 -143 336z" />
<glyph unicode="d" horiz-adv-x="1464" d="M74 418q0 133 39 252q39 117 110 221q92 127 205 190q115 66 246 66q115 0 196 -47q80 -47 136 -144l116 600h361l-303 -1556h-361l33 162q-82 -96 -172 -143.5t-197 -47.5q-188 0 -298.5 119t-110.5 328zM444 440q0 -102 47.5 -155.5t137.5 -53.5q139 0 225 127 q86 126 86 332q0 92 -49 146q-49 51 -135 51q-135 0 -223.5 -125t-88.5 -322z" />
<glyph unicode="e" horiz-adv-x="1388" d="M74 434q0 131 45 248t133 221q109 123 246 182q144 61 319 62q227 0 360.5 -121t133.5 -326q0 -41 -6 -84q-10 -74 -17 -98l-12 -57h-838q0 -2 -1 -7t-1 -10v-18q0 -109 66 -164q61 -53 196 -53q109 0 238 35q131 35 264 100l-55 -278q-123 -45 -260 -72 q-119 -23 -264 -23q-260 0 -403.5 121t-143.5 342zM487 682h463q4 16 4 27q0 4 1 13t1 13q0 80 -49 127q-51 47 -129 47q-106 0 -178 -57t-113 -170z" />
<glyph unicode="f" horiz-adv-x="890" d="M102 864l50 256h176l16 78q37 186 153.5 272t333.5 86h275l-47 -235h-197q-78 0 -110 -27q-35 -29 -47 -96l-17 -78h303l-49 -256h-303l-168 -864h-360l168 864h-177z" />
<glyph unicode="g" horiz-adv-x="1464" d="M41 -377l53 279q78 -51 170 -80q82 -27 174 -27q178 0 273 76q96 78 129 242l16 77q-88 -100 -174 -145q-88 -45 -195 -45q-190 0 -300.5 123t-110.5 334q0 117 39 227q39 109 110 213q90 121 201 184q113 63 246 64q121 0 198 -45q80 -45 136 -146l30 166h361l-189 -973 q-59 -303 -247.5 -446t-528.5 -143q-98 0 -201 16q-95 15 -190 49zM449 469q0 -102 47 -155.5t137 -53.5q131 0 219 119t88 295q0 100 -47 157q-45 55 -137 56q-133 0 -219 -119q-88 -123 -88 -299z" />
<glyph unicode="h" horiz-adv-x="1456" d="M63 0l302 1556h360l-117 -600q96 96 199 144q104 47 209 47q156 0 239.5 -80t83.5 -229q0 -16 -4 -70q-2 -23 -14 -86l-133 -682h-359l113 584q14 63 19 96q6 41 6 63q0 66 -35 99q-39 35 -101 35q-111 0 -190.5 -86t-110.5 -240l-108 -551h-359z" />
<glyph unicode="i" horiz-adv-x="700" d="M63 0l218 1120h360l-219 -1120h-359zM307 1264l58 292h360l-57 -292h-361z" />
<glyph unicode="j" horiz-adv-x="700" d="M-262 -442l45 235h63q102 0 148 45q47 47 72 182l215 1100h360l-215 -1100q-47 -236 -172 -348q-127 -115 -338 -114h-178zM307 1264l58 292h360l-57 -292h-361z" />
<glyph unicode="k" horiz-adv-x="1361" d="M63 0l302 1556h360l-164 -843l483 407h422l-651 -518l473 -602h-409l-363 483l-94 -483h-359z" />
<glyph unicode="l" horiz-adv-x="700" d="M63 0l302 1556h360l-303 -1556h-359z" />
<glyph unicode="m" horiz-adv-x="2131" d="M63 0l218 1120h360l-33 -164q82 94 178 144q92 47 199 47q115 0 199 -60q82 -57 100 -153q80 100 189 158q104 55 219 55q154 0 237 -82q86 -83 86 -227q0 -14 -4 -68q-2 -20 -14 -88l-133 -682h-361l113 584l4 14q25 123 25 160q0 57 -31 88t-86 31q-104 0 -174 -84 q-72 -88 -103 -242l-108 -551h-361l115 584q10 51 21 114q6 39 6 60q0 57 -31 88t-86 31q-98 0 -174 -88.5t-103 -237.5l-108 -551h-359z" />
<glyph unicode="n" horiz-adv-x="1456" d="M63 0l218 1120h360l-33 -164q96 96 199 144q104 47 209 47q156 0 239.5 -80t83.5 -229q0 -16 -4 -70q-2 -23 -14 -86l-133 -682h-359l113 584q14 63 19 96q6 41 6 63q0 66 -35 99q-39 35 -101 35q-111 0 -190.5 -86t-110.5 -240l-108 -551h-359z" />
<glyph unicode="o" horiz-adv-x="1406" d="M74 444q0 123 47 246t131 221q98 113 240 176q133 59 305 60q248 0 393 -127q143 -125 143 -346q0 -129 -45 -246q-47 -123 -131 -219q-100 -115 -242 -178q-133 -59 -309 -60q-246 0 -389 127t-143 346zM449 444q0 -106 49 -161.5t141 -55.5q139 0 229 127t90 322 q0 104 -49 159.5t-141 55.5q-141 0 -229 -125q-90 -127 -90 -322z" />
<glyph unicode="p" horiz-adv-x="1464" d="M-20 -426l301 1546h360l-33 -164q82 96 172 143.5t197 47.5q188 0 299 -121q111 -120 110 -326q0 -133 -38 -251q-39 -117 -111 -222q-92 -127 -205 -190q-115 -66 -246 -66q-115 0 -196 47q-80 47 -135 144l-115 -588h-360zM518 428q0 -92 49 -145q49 -51 138 -52 q135 0 223 125t88 322q0 102 -47 155.5t-138 53.5q-141 0 -225 -127q-88 -133 -88 -332z" />
<glyph unicode="q" horiz-adv-x="1464" d="M74 418q0 133 39 252q39 117 110 221q92 127 205 190q115 66 246 66q115 0 196 -47q80 -47 136 -144l30 164h361l-301 -1546h-361l115 588q-78 -96 -170 -144q-90 -47 -197 -47q-188 0 -298.5 119t-110.5 328zM444 440q0 -102 47.5 -155.5t137.5 -53.5q139 0 225 127 q86 126 86 332q0 92 -49 146q-49 51 -135 51q-135 0 -223.5 -125t-88.5 -322z" />
<glyph unicode="r" horiz-adv-x="1009" d="M63 0l218 1120h360l-39 -192q70 106 178 162q111 57 236 57q27 0 43 -2q27 -4 57 -6l-63 -324q-35 20 -82 33q-39 10 -97 10q-139 0 -227 -88q-92 -92 -123 -254l-102 -516h-359z" />
<glyph unicode="s" horiz-adv-x="1218" d="M20 43l54 281q100 -59 207 -86q115 -29 227 -29q115 0 170 27q57 27 57 79q0 33 -33 56q-27 18 -131 41l-65 12q-188 39 -275 119q-82 76 -81 215q0 187 141 289q139 100 405 100q106 0 226 -17q121 -16 225 -45l-53 -278q-113 53 -209 76q-113 27 -197 26 q-102 0 -164 -28q-57 -27 -57 -78q0 -27 33 -47q29 -16 125 -39l65 -12q219 -47 303 -119q88 -76 88 -201q0 -195 -153 -305q-152 -109 -428 -109q-115 0 -236 19q-131 20 -244 53z" />
<glyph unicode="t" horiz-adv-x="978" d="M88 864l49 256h178l62 318h360l-61 -318h366l-51 -256h-366l-93 -475q-4 -20 -4 -27q0 -4 -1 -11t-1 -9q0 -43 31 -66q29 -20 102 -20h185l-51 -256h-301q-160 0 -246 67.5t-86 196.5q0 18 4 60q4 45 8 65l92 475h-176z" />
<glyph unicode="u" horiz-adv-x="1456" d="M123 281q0 20 4 73q2 39 12 82l131 684h359l-113 -583q-14 -63 -18 -97q-6 -39 -6 -63q0 -63 34.5 -98t100.5 -35q111 0 190.5 86t110.5 239l108 551h359l-217 -1120h-361l33 164q-90 -96 -193 -146q-96 -47 -213 -47q-154 0 -237.5 80t-83.5 230z" />
<glyph unicode="v" horiz-adv-x="1333" d="M129 1120h330l145 -782l422 782h363l-658 -1120h-379z" />
<glyph unicode="w" horiz-adv-x="1890" d="M178 1120h330l39 -770l338 770h284l41 -768l336 768h352l-512 -1120h-380l-37 770l-342 -770h-371z" />
<glyph unicode="x" horiz-adv-x="1320" d="M-84 0l537 573l-297 547h372l166 -332l291 332h389l-510 -545l312 -575h-373l-176 354l-322 -354h-389z" />
<glyph unicode="y" horiz-adv-x="1333" d="M0 -442l37 235h113q92 0 137 29q49 31 86 104l33 60l-271 1134h338l154 -776l397 776h383l-709 -1226q-120 -206 -221 -271q-102 -66 -260 -65h-217z" />
<glyph unicode="z" horiz-adv-x="1191" d="M-18 0l47 250l700 614h-555l49 256h977l-49 -250l-698 -614h579l-49 -256h-1001z" />
<glyph unicode="{" horiz-adv-x="1456" d="M217 494l45 223h62q143 0 206 57q68 61 95 209l39 205q37 195 153 280q119 88 336 88h217l-43 -225h-70q-138 0 -190 -43q-51 -43 -80 -186l-33 -166q-31 -156 -90 -227.5t-172 -96.5q82 -23 117 -65q37 -46 37 -123q0 -18 -4 -64q-3 -34 -13 -73l-32 -166 q-10 -47 -13 -70q-2 -16 -2 -41q0 -70 41 -94.5t156 -24.5h68l-43 -225h-218q-180 0 -270 61.5t-90 184.5q0 10 4 51l10 72l37 192q4 20 8 57.5t4 49.5q0 88 -45 125q-43 35 -163 35h-64z" />
<glyph unicode="|" horiz-adv-x="747" d="M260 -483v2048h227v-2048h-227z" />
<glyph unicode="}" horiz-adv-x="1456" d="M90 -334l43 225h70q137 0 192 46q49 41 78 184l33 166q31 156 90 227q61 74 174 98q-84 18 -119 64q-37 46 -37 123q0 12 4 57q3 34 13 80l33 166q9 43 12 67q2 16 2 43q0 68 -41 93q-43 27 -156 26h-67l43 225h219q180 0 268 -61q90 -61 90 -184q0 -16 -4 -58 q-2 -20 -10 -65l-39 -205q-4 -20 -8 -57t-4 -49q0 -86 47 -123q45 -37 162 -37h63l-45 -223h-61q-143 0 -207 -58q-68 -61 -94 -209l-37 -192q-37 -190 -154 -281q-115 -88 -336 -88h-217z" />
<glyph unicode="~" horiz-adv-x="1714" d="M217 434v244q111 82 197 115q92 35 184 34q102 0 250 -59q8 -2 22.5 -8t22.5 -8q154 -61 248 -62q84 0 170 37q82 35 188 123v-244q-111 -82 -196 -114q-92 -35 -185 -35q-109 0 -250 57l-12 6t-10 4q-14 4 -23 8q-154 61 -248 62q-90 0 -174 -39q-92 -43 -184 -121z" />
<glyph unicode="&#xa0;" />
<glyph unicode="&#xa1;" horiz-adv-x="933" d="M141 0l113 573l131 418h258l-29 -418l-112 -573h-361zM362 1137l70 356h361l-70 -356h-361z" />
<glyph unicode="&#xa2;" d="M137 414q0 291 182 491q182 203 478 236l55 291h162l-56 -287q80 -4 142 -17q72 -14 149 -43l-57 -292q-72 47 -143 73q-68 25 -131 25h-9l-129 -664q94 4 170 27q84 27 150 72l-56 -293q-61 -20 -149 -39q-68 -14 -164 -21l-55 -286h-162l55 290q-203 23 -317.5 138 t-114.5 299zM516 473q0 -72 29 -129q28 -55 80 -80l116 592q-102 -47 -163.5 -151.5t-61.5 -231.5z" />
<glyph unicode="&#xa3;" d="M14 0l52 266h225l63 326h-192l45 239h194l33 170q51 266 203 394q150 125 426 125q92 0 180 -13q84 -12 172 -41l-55 -286q-55 35 -129 57q-68 20 -141 20q-123 0 -195 -61t-96 -195l-33 -170h373l-45 -239h-375l-64 -326h541l-51 -266h-1131z" />
<glyph unicode="&#xa4;" horiz-adv-x="1302" d="M74 215l207 207q-23 41 -41 102q-14 49 -15 117q0 66 15 117q16 55 45 100l-209 205l153 154l207 -207q47 31 103 45q51 14 114 14q43 0 109 -14q45 -10 110 -41l207 207l152 -154l-207 -207q28 -55 43 -110q14 -51 14 -109q0 -66 -14 -115q-16 -59 -45 -100l207 -207 l-154 -153l-207 206q-41 -29 -100 -45q-49 -14 -115 -14q-47 0 -112 14q-51 10 -107 41l-207 -207zM434 641q0 -92 63.5 -155.5t155.5 -63.5t155.5 63.5t63.5 155.5t-63.5 155.5t-155.5 63.5t-155.5 -63.5t-63.5 -155.5z" />
<glyph unicode="&#xa5;" d="M12 416l39 194h445l14 76l-29 76h-401l37 192h291l-215 539h368l195 -500l385 500h405l-440 -539h293l-37 -192h-408l-59 -76l-18 -76h454l-37 -194h-454l-82 -416h-381l82 416h-447z" />
<glyph unicode="&#xa6;" horiz-adv-x="747" d="M260 -350v758h227v-758h-227zM260 674v758h227v-758h-227z" />
<glyph unicode="&#xa7;" horiz-adv-x="1024" d="M-68 -137l48 237q106 -45 182 -65.5t141 -20.5q76 0 125 31t49 80q0 31 -24 55q-23 23 -103 60l-135 61q-121 55 -174 127q-57 76 -57 176q0 125 73 219q74 95 215 154q-51 39 -77 88q-25 46 -25 98q0 154 139 256q137 100 359 101q90 0 170 -15q84 -14 174 -43l-43 -227 q-92 41 -162 59.5t-133 18.5q-80 0 -127 -31t-47 -80q0 -31 24 -55q29 -29 82 -51l90 -41q175 -77 240 -154q63 -76 63 -186q0 -121 -77.5 -217.5t-223.5 -153.5q55 -35 84 -80q27 -41 27 -98q0 -164 -141.5 -262.5t-376.5 -98.5q-90 0 -174 15q-90 15 -185 43zM279 682 q0 -61 49 -104q47 -41 211 -107q86 29 125 72q43 47 43 102q0 61 -58 107q-63 51 -205 102q-78 -20 -122 -66q-43 -43 -43 -106z" />
<glyph unicode="&#xa8;" horiz-adv-x="1024" d="M311 1339l47 246h238l-49 -246h-236zM707 1339l49 246h235l-49 -246h-235z" />
<glyph unicode="&#xa9;" horiz-adv-x="2048" d="M283 741q0 152 55 285t162 240q109 109 241 164t283 55t283 -55q133 -55 241 -164q106 -106 161.5 -239.5t55.5 -285.5q0 -154 -55 -282q-59 -135 -162 -240q-109 -109 -241 -164t-283 -55t-283 55q-133 55 -241 164q-102 104 -162 240q-55 128 -55 282zM434 741.5 q0 -120.5 43 -225.5q41 -100 131 -190q86 -86 190.5 -129t225.5 -43t225.5 43t190.5 129q90 90 131 190q43 104 43 225t-43 226q-41 100 -131 190t-191 131q-104 43 -225 43t-225 -43q-100 -41 -190.5 -131t-131.5 -190q-43 -105 -43 -225.5zM600 741.5q0 194.5 127 311.5 q126 117 338 116q61 0 133 -10q53 -8 125 -33v-215q-53 33 -113 54q-55 18 -112 18q-113 0 -176.5 -63.5t-63.5 -178t63.5 -178t176.5 -63.5q61 0 121 18q55 18 104 53v-213q-70 -23 -131 -34q-53 -10 -127 -11q-212 0 -338 117q-127 117 -127 311.5z" />
<glyph unicode="&#xaa;" horiz-adv-x="1153" d="M88 373l39 200h815l-39 -200h-815zM178 907q0 154 123 234q119 78 367 78h141l4 20l1 3q1 3 1 5v17q0 47 -39 67q-41 23 -114 23q-98 0 -175 -17q-80 -16 -172 -53l35 180q78 23 185 41q80 14 163 15q186 0 283 -64q98 -63 98 -186q0 -39 -2 -56q-4 -37 -8 -49l-86 -448 h-248l25 125q-65 -77 -142 -111q-80 -35 -176 -35q-123 0 -194 56q-70 55 -70 155zM432 954q0 -45 31 -69q33 -27 84 -27q82 0 149 57q63 55 82 144l4 22h-90q-147 0 -205 -28q-55 -28 -55 -99z" />
<glyph unicode="&#xab;" horiz-adv-x="1329" d="M125 506l37 186l565 371l-49 -252l-346 -229l258 -222l-43 -223zM614 506l37 186l566 371l-50 -252l-346 -229l258 -222l-43 -223z" />
<glyph unicode="&#xac;" horiz-adv-x="1714" d="M217 672v237h1282v-622h-235v385h-1047z" />
<glyph unicode="&#xad;" horiz-adv-x="849" d="M51 444l58 291h628l-57 -291h-629z" />
<glyph unicode="&#xae;" horiz-adv-x="2048" d="M283 741q0 152 55 285t162 240q109 109 241 164t283 55t283 -55q133 -55 241 -164q106 -106 161.5 -239.5t55.5 -285.5q0 -154 -55 -282q-59 -135 -162 -240q-109 -109 -241 -164t-283 -55t-283 55q-133 55 -241 164q-102 104 -162 240q-55 128 -55 282zM434 741.5 q0 -120.5 43 -225.5q41 -100 131 -190q86 -86 190.5 -129t225.5 -43t225.5 43t190.5 129q90 90 131 190q43 104 43 225t-43 226q-41 100 -131 190t-191 131q-104 43 -225 43t-225 -43q-100 -41 -190.5 -131t-131.5 -190q-43 -105 -43 -225.5zM719 338v836h285q176 0 264 -60 q86 -57 86 -180q0 -84 -54 -141q-52 -55 -147 -74q39 -20 76 -62q39 -43 65 -98l111 -221h-229l-107 213q-33 68 -68 111q-27 33 -57 32h-12v-356h-213zM932 829h35q80 0 118.5 27t38.5 78q0 53 -39 78q-41 25 -118 24h-35v-207z" />
<glyph unicode="&#xaf;" horiz-adv-x="1024" d="M317 1368l37 188h631l-37 -188h-631z" />
<glyph unicode="&#xb0;" horiz-adv-x="1024" d="M178 1200q0 141 96.5 237.5t237.5 96.5q66 0 127 -25q51 -20 109 -73q49 -53 71 -109q25 -61 25 -126.5t-24.5 -127t-69.5 -106.5q-49 -49 -110.5 -74t-129.5 -25q-141 0 -236 95q-96 96 -96 237zM340 1200q0 -72 49 -121t123 -49t123 49t49 121t-51 123q-49 49 -121 49 q-74 0 -123 -49t-49 -123z" />
<glyph unicode="&#xb1;" horiz-adv-x="1714" d="M217 0v238h1282v-238h-1282zM217 694v236h522v354h238v-354h522v-236h-522v-354h-238v354h-522z" />
<glyph unicode="&#xb2;" horiz-adv-x="894" d="M92 668l31 153l366 266q80 57 119 107q39 47 39 92q0 43 -33 64q-35 23 -90 22q-63 0 -141 -22q-66 -18 -145 -68l36 186q98 29 158 39q74 12 143 13q150 0 228 -54q80 -55 80 -155q0 -82 -54 -154q-57 -78 -174 -158l-231 -163h377l-33 -168h-676z" />
<glyph unicode="&#xb3;" horiz-adv-x="894" d="M82 700l33 172q57 -35 118 -55q57 -18 119 -18q104 0 170 39q61 37 62 104q0 55 -49.5 80t-153.5 25h-76l27 137h86q104 0 161.5 28.5t57.5 83.5q0 39 -39 58q-37 18 -111 18q-53 0 -118 -12q-53 -10 -140 -41l31 166q61 16 146 26q66 8 147 9q156 0 238 -50 q84 -49 83 -143q0 -80 -57 -137q-53 -53 -151 -70q74 -12 114 -59q39 -45 39 -123q0 -137 -116.5 -211t-333.5 -74q-78 0 -152 13q-67 11 -135 34z" />
<glyph unicode="&#xb4;" horiz-adv-x="1024" d="M465 1262l346 376h293l-438 -376h-201z" />
<glyph unicode="&#xb5;" horiz-adv-x="1505" d="M-55 -428l301 1548h360l-127 -651l-6 -41q-2 -14 -2 -37q0 -72 43 -112q41 -39 125 -39q98 0 162 57q59 53 84 172l127 651h360l-145 -749q-2 -14 -6 -39q-2 -12 -2 -31q0 -25 14 -43q12 -14 41 -14q18 0 37 6q25 8 39 16l-50 -250q-70 -25 -106 -34q-41 -10 -94 -11 q-88 0 -137 37q-47 35 -70 121q-61 -80 -137 -119t-164 -39q-78 0 -121 23q-47 25 -68 72l-96 -494h-362z" />
<glyph unicode="&#xb6;" horiz-adv-x="1302" d="M152 1001q0 213 157.5 352.5t405.5 139.5h520l-328 -1690h-190l299 1543h-189l-301 -1543h-188l164 846q-166 20 -258 112.5t-92 239.5z" />
<glyph unicode="&#xb7;" horiz-adv-x="776" d="M172 518l76 387h360l-76 -387h-360z" />
<glyph unicode="&#xb8;" horiz-adv-x="1024" d="M45 -375l29 156q35 -16 80 -27q35 -8 79 -8q66 0 105 29q37 29 37 75q0 27 -13 60q-10 27 -45 90h142q31 -43 53 -96q18 -43 18 -86q0 -104 -75.5 -161.5t-212.5 -57.5q-47 0 -97 6q-28 4 -100 20z" />
<glyph unicode="&#xb9;" horiz-adv-x="894" d="M137 668l31 157h205l102 521l-233 -52l30 160l244 49h219l-133 -678h207l-31 -157h-641z" />
<glyph unicode="&#xba;" horiz-adv-x="1153" d="M94 373l39 200h823l-38 -200h-824zM178 1032q0 217 150 352q152 135 391 136q182 0 291 -90q106 -88 106 -244q0 -219 -147 -355q-145 -133 -391 -133q-186 0 -291 90q-109 92 -109 244zM465 1024q0 -76 35 -117q33 -39 102 -39q98 0 164 93q66 94 65 233q0 76 -36 115 q-37 41 -101 41q-100 0 -164 -93q-65 -94 -65 -233z" />
<glyph unicode="&#xbb;" horiz-adv-x="1329" d="M117 135l49 254l344 229l-256 222l43 223l420 -371l-35 -186zM606 135l49 254l344 229l-258 222l45 223l420 -371l-35 -186z" />
<glyph unicode="&#xbc;" horiz-adv-x="2179" d="M137 668l31 157h205l102 521l-233 -52l30 160l244 49h219l-133 -678h207l-31 -157h-641zM371 -29l1235 1549h245l-1235 -1549h-245zM1210 162l33 168l469 506h250l-100 -519h135l-29 -155h-137l-33 -162h-229l33 162h-392zM1393 317h239l68 334z" />
<glyph unicode="&#xbd;" horiz-adv-x="2179" d="M137 668l31 157h205l102 521l-233 -52l30 160l244 49h219l-133 -678h207l-31 -157h-641zM371 -29l1235 1549h245l-1235 -1549h-245zM1272 0l31 154l366 266q80 57 119 106q39 47 39 90q0 41 -33 66q-31 23 -90 23q-76 0 -143 -23q-76 -25 -146 -68l37 187q98 29 158 39 q74 12 143 12q150 0 229.5 -55.5t79.5 -153.5q0 -80 -55 -154q-59 -80 -172 -157l-231 -164h374l-32 -168h-674z" />
<glyph unicode="&#xbe;" horiz-adv-x="2179" d="M90 700l35 172q58 -37 117 -55q57 -18 120 -18q104 0 170 39q61 37 62 104q0 55 -49 80t-154 25h-76l27 137h86q104 0 162 28q55 29 55 84q0 39 -37 57.5t-110 18.5q-55 0 -121 -12q-61 -12 -139 -41l32 166q61 16 146 26q66 8 147 9q154 0 238 -50q82 -49 82 -143 q0 -82 -56 -137q-53 -53 -153 -70q76 -14 114 -59q41 -47 41 -123q0 -137 -116.5 -211t-333.5 -74q-80 0 -154 13q-67 11 -135 34zM385 -29l1235 1549h246l-1235 -1549h-246zM1217 162l30 168l471 506h248l-100 -519h137l-31 -155h-137l-31 -162h-229l31 162h-389zM1399 317 h239l66 334z" />
<glyph unicode="&#xbf;" horiz-adv-x="1187" d="M76 293q0 117 53 213q51 92 180 196l76 60q82 63 111 102q28 37 36 80l9 45h360l-10 -51q-16 -82 -57 -141q-45 -66 -175 -164l-75 -60q-84 -63 -115 -112q-35 -53 -35 -107q0 -57 39 -88q40 -31 117 -30q78 0 182 34q101 34 215 99l-61 -314q-102 -35 -232 -61 q-100 -20 -202 -21q-195 0 -305.5 86.5t-110.5 233.5zM569 1137l70 356h360l-69 -356h-361z" />
<glyph unicode="&#xc0;" horiz-adv-x="1583" d="M-133 0l844 1493h440l264 -1493h-366l-43 272h-596l-148 -272h-395zM555 543h401l-90 575zM940 1899l144 -264h-178l-230 264h264z" />
<glyph unicode="&#xc1;" horiz-adv-x="1583" d="M-133 0l844 1493h440l264 -1493h-366l-43 272h-596l-148 -272h-395zM555 543h401l-90 575zM1035 1899h280l-319 -264h-207z" />
<glyph unicode="&#xc2;" horiz-adv-x="1583" d="M-133 0l844 1493h440l264 -1493h-366l-43 272h-596l-148 -272h-395zM555 543h401l-90 575zM799 1899h348l152 -264h-170l-164 161l-231 -161h-179z" />
<glyph unicode="&#xc3;" horiz-adv-x="1583" d="M-133 0l844 1493h440l264 -1493h-366l-43 272h-596l-148 -272h-395zM555 543h401l-90 575zM942 1686l-49 37q-29 23 -41 26q-16 6 -34 6q-35 0 -62 -32q-25 -31 -37 -88h-137q25 125 92 196q66 70 160 70q35 0 70 -12q37 -12 67 -39l53 -41q20 -16 33 -21q18 -6 35 -6 q39 0 66 31q29 31 36 88h138q-25 -127 -90.5 -196.5t-159.5 -69.5q-39 0 -70 12q-39 14 -70 39z" />
<glyph unicode="&#xc4;" horiz-adv-x="1583" d="M-133 0l844 1493h440l264 -1493h-366l-43 272h-596l-148 -272h-395zM555 543h401l-90 575zM670 1899h236l-47 -246h-236zM1065 1899h238l-49 -246h-236z" />
<glyph unicode="&#xc5;" horiz-adv-x="1583" d="M-133 0l825 1458q-29 43 -39 76q-12 39 -12 82q0 117 84 201t200.5 84t200.5 -84t84 -201q0 -39 -14 -86q-12 -39 -41 -74l260 -1456h-366l-43 272h-596l-148 -272h-395zM555 543h401l-90 575zM795 1616q0 -53 38.5 -92t92 -39t92.5 39t39 92t-39 92t-92.5 39t-92 -39 t-38.5 -92z" />
<glyph unicode="&#xc6;" horiz-adv-x="2220" d="M-160 0l934 1493h1421l-57 -291h-653l-53 -278h614l-57 -291h-615l-65 -342h673l-55 -291h-1061l68 350h-492l-217 -350h-385zM610 627h377l119 610h-121z" />
<glyph unicode="&#xc7;" horiz-adv-x="1501" d="M74 573q0 180 57 338q57 156 168 289q135 156 315 238q182 82 398 82q121 0 233 -27q115 -27 238 -84l-62 -309q-94 72 -192 106q-100 35 -209 35q-230 0 -387 -178q-156 -176 -156 -445q0 -170 96 -270q95 -98 265 -98q101 0 215 37q106 35 254 114l-66 -331 q-138 -49 -264 -74q-125 -25 -242 -25q-303 0 -481 164q-180 166 -180 438zM451 -375l29 156q35 -16 80 -27q35 -8 79 -8q66 0 105 29q37 29 37 75q0 27 -13 60q-10 27 -45 90h142q31 -43 53 -96q18 -43 18 -86q0 -104 -75.5 -161.5t-212.5 -57.5q-47 0 -97 6q-28 4 -100 20 z" />
<glyph unicode="&#xc8;" horiz-adv-x="1398" d="M43 0l291 1493h1038l-57 -291h-653l-54 -278h615l-58 -291h-614l-66 -342h674l-55 -291h-1061zM899 1899l144 -264h-178l-230 264h264z" />
<glyph unicode="&#xc9;" horiz-adv-x="1398" d="M43 0l291 1493h1038l-57 -291h-653l-54 -278h615l-58 -291h-614l-66 -342h674l-55 -291h-1061zM994 1899h280l-319 -264h-207z" />
<glyph unicode="&#xca;" horiz-adv-x="1398" d="M43 0l291 1493h1038l-57 -291h-653l-54 -278h615l-58 -291h-614l-66 -342h674l-55 -291h-1061zM758 1899h348l152 -264h-170l-164 161l-231 -161h-179z" />
<glyph unicode="&#xcb;" horiz-adv-x="1398" d="M43 0l291 1493h1038l-57 -291h-653l-54 -278h615l-58 -291h-614l-66 -342h674l-55 -291h-1061zM629 1899h236l-47 -246h-236zM1024 1899h238l-49 -246h-236z" />
<glyph unicode="&#xcc;" horiz-adv-x="761" d="M43 0l291 1493h385l-291 -1493h-385zM542 1899l144 -264h-178l-230 264h264z" />
<glyph unicode="&#xcd;" horiz-adv-x="761" d="M43 0l291 1493h385l-291 -1493h-385zM637 1899h280l-319 -264h-207z" />
<glyph unicode="&#xce;" horiz-adv-x="761" d="M43 0l291 1493h385l-291 -1493h-385zM401 1899h348l152 -264h-170l-164 161l-231 -161h-179z" />
<glyph unicode="&#xcf;" horiz-adv-x="761" d="M43 0l291 1493h385l-291 -1493h-385zM272 1899h236l-47 -246h-236zM667 1899h238l-49 -246h-236z" />
<glyph unicode="&#xd0;" horiz-adv-x="1730" d="M-4 643l51 260h205l115 590h405q285 0 434 -35q145 -35 242 -115q98 -80 147.5 -196.5t49.5 -261.5q0 -205 -84 -381q-86 -180 -236 -303q-135 -111 -307 -156t-537 -45h-405l125 643h-205zM518 291h137q270 0 428 151.5t158 407.5q0 174 -104 262q-106 90 -306 90h-135 l-57 -299h246l-51 -260h-246z" />
<glyph unicode="&#xd1;" horiz-adv-x="1712" d="M43 0l291 1493h430l342 -1034l201 1034h364l-291 -1493h-430l-342 1034l-200 -1034h-365zM991 1686l-49 37q-29 23 -41 26q-16 6 -34 6q-35 0 -62 -32q-25 -31 -37 -88h-137q25 125 92 196q66 70 160 70q35 0 70 -12q37 -12 67 -39l53 -41q20 -16 33 -21q18 -6 35 -6 q39 0 66 31q29 31 36 88h138q-25 -127 -90.5 -196.5t-159.5 -69.5q-39 0 -70 12q-39 14 -70 39z" />
<glyph unicode="&#xd2;" horiz-adv-x="1740" d="M74 569q0 180 55 344q57 166 162 293q133 162 305 236q180 78 410 78q298 0 479 -166q182 -166 182 -432q0 -181 -55 -344q-55 -164 -162 -291q-127 -156 -307 -238q-174 -78 -410 -78q-299 0 -477 164q-182 166 -182 434zM479 612q0 -176 78 -268q80 -94 221 -94 q115 0 205 49q86 47 152 143q57 84 92 205q33 111 33 234q0 176 -80 268t-230 92q-199 0 -336 -180q-135 -179 -135 -449zM1060 1899l144 -264h-178l-230 264h264z" />
<glyph unicode="&#xd3;" horiz-adv-x="1740" d="M74 569q0 180 55 344q57 166 162 293q133 162 305 236q180 78 410 78q298 0 479 -166q182 -166 182 -432q0 -181 -55 -344q-55 -164 -162 -291q-127 -156 -307 -238q-174 -78 -410 -78q-299 0 -477 164q-182 166 -182 434zM479 612q0 -176 78 -268q80 -94 221 -94 q115 0 205 49q86 47 152 143q57 84 92 205q33 111 33 234q0 176 -80 268t-230 92q-199 0 -336 -180q-135 -179 -135 -449zM1155 1899h280l-319 -264h-207z" />
<glyph unicode="&#xd4;" horiz-adv-x="1740" d="M74 569q0 180 55 344q57 166 162 293q133 162 305 236q180 78 410 78q298 0 479 -166q182 -166 182 -432q0 -181 -55 -344q-55 -164 -162 -291q-127 -156 -307 -238q-174 -78 -410 -78q-299 0 -477 164q-182 166 -182 434zM479 612q0 -176 78 -268q80 -94 221 -94 q115 0 205 49q86 47 152 143q57 84 92 205q33 111 33 234q0 176 -80 268t-230 92q-199 0 -336 -180q-135 -179 -135 -449zM919 1899h348l152 -264h-170l-164 161l-231 -161h-179z" />
<glyph unicode="&#xd5;" horiz-adv-x="1740" d="M74 569q0 180 55 344q57 166 162 293q133 162 305 236q180 78 410 78q298 0 479 -166q182 -166 182 -432q0 -181 -55 -344q-55 -164 -162 -291q-127 -156 -307 -238q-174 -78 -410 -78q-299 0 -477 164q-182 166 -182 434zM479 612q0 -176 78 -268q80 -94 221 -94 q115 0 205 49q86 47 152 143q57 84 92 205q33 111 33 234q0 176 -80 268t-230 92q-199 0 -336 -180q-135 -179 -135 -449zM1062 1686l-49 37q-29 23 -41 26q-16 6 -34 6q-35 0 -62 -32q-25 -31 -37 -88h-137q25 125 92 196q66 70 160 70q35 0 70 -12q37 -12 67 -39l53 -41 q20 -16 33 -21q18 -6 35 -6q39 0 66 31q29 31 36 88h138q-25 -127 -90.5 -196.5t-159.5 -69.5q-39 0 -70 12q-39 14 -70 39z" />
<glyph unicode="&#xd6;" horiz-adv-x="1740" d="M74 569q0 180 55 344q57 166 162 293q133 162 305 236q180 78 410 78q298 0 479 -166q182 -166 182 -432q0 -181 -55 -344q-55 -164 -162 -291q-127 -156 -307 -238q-174 -78 -410 -78q-299 0 -477 164q-182 166 -182 434zM479 612q0 -176 78 -268q80 -94 221 -94 q115 0 205 49q86 47 152 143q57 84 92 205q33 111 33 234q0 176 -80 268t-230 92q-199 0 -336 -180q-135 -179 -135 -449zM790 1899h236l-47 -246h-236zM1185 1899h238l-49 -246h-236z" />
<glyph unicode="&#xd7;" horiz-adv-x="1714" d="M256 209l434 432l-434 434l168 168l434 -434l434 434l168 -168l-434 -434l434 -432l-168 -168l-434 432l-434 -432z" />
<glyph unicode="&#xd8;" horiz-adv-x="1740" d="M-96 45l254 213q-43 72 -64 152q-20 76 -20 159q0 180 55 344q57 166 162 293q127 158 305 236t410 78q150 0 264 -39t205 -117l258 215l102 -123l-258 -213q45 -76 68 -158q23 -84 22 -165q0 -181 -55 -345t-162 -290q-131 -160 -307 -236q-180 -78 -410 -78 q-145 0 -264 41q-121 41 -211 123l-252 -213zM481 612q0 -4 4 -73v-7l711 596q-39 55 -100 84q-63 29 -144 29q-201 0 -336 -178.5t-135 -450.5zM539 371q41 -61 100 -90q61 -31 139 -31q115 0 205 49q86 47 152 143q59 88 94 207q33 111 33 230q0 27 -7 77q0 4 -1 9l-1 4z " />
<glyph unicode="&#xd9;" horiz-adv-x="1662" d="M139 414q0 51 4 80q12 82 17 104l174 895h385l-174 -895q-12 -70 -15 -84q-4 -49 -4 -65q0 -96 52 -146q53 -49 157 -49q143 0 215 78q74 80 111 266l174 895h385l-174 -895q-66 -332 -246 -479.5t-520 -147.5q-266 0 -403.5 113t-137.5 330zM981 1899l144 -264h-178 l-230 264h264z" />
<glyph unicode="&#xda;" horiz-adv-x="1662" d="M139 414q0 51 4 80q12 82 17 104l174 895h385l-174 -895q-12 -70 -15 -84q-4 -49 -4 -65q0 -96 52 -146q53 -49 157 -49q143 0 215 78q74 80 111 266l174 895h385l-174 -895q-66 -332 -246 -479.5t-520 -147.5q-266 0 -403.5 113t-137.5 330zM1076 1899h280l-319 -264 h-207z" />
<glyph unicode="&#xdb;" horiz-adv-x="1662" d="M139 414q0 51 4 80q12 82 17 104l174 895h385l-174 -895q-12 -70 -15 -84q-4 -49 -4 -65q0 -96 52 -146q53 -49 157 -49q143 0 215 78q74 80 111 266l174 895h385l-174 -895q-66 -332 -246 -479.5t-520 -147.5q-266 0 -403.5 113t-137.5 330zM840 1899h348l152 -264h-170 l-164 161l-231 -161h-179z" />
<glyph unicode="&#xdc;" horiz-adv-x="1662" d="M139 414q0 51 4 80q12 82 17 104l174 895h385l-174 -895q-12 -70 -15 -84q-4 -49 -4 -65q0 -96 52 -146q53 -49 157 -49q143 0 215 78q74 80 111 266l174 895h385l-174 -895q-66 -332 -246 -479.5t-520 -147.5q-266 0 -403.5 113t-137.5 330zM711 1899h236l-47 -246h-236 zM1106 1899h238l-49 -246h-236z" />
<glyph unicode="&#xdd;" horiz-adv-x="1482" d="M129 1493h385l254 -553l444 553h445l-737 -870l-121 -623h-385l121 623zM998 1899h280l-319 -264h-207z" />
<glyph unicode="&#xde;" horiz-adv-x="1519" d="M43 0l291 1493h385l-43 -223h246q238 0 368 -107q133 -109 133 -299q0 -117 -43 -221q-43 -102 -127 -184q-88 -86 -213 -125q-123 -39 -309 -39h-246l-57 -295h-385zM541 573h204q133 0 209 66q72 63 72 186q0 80 -51 125q-49 43 -148 43h-206z" />
<glyph unicode="&#xdf;" horiz-adv-x="1472" d="M63 0l216 1114q43 227 196 334q156 109 428 108q229 0 344 -88q117 -89 117 -258q0 -29 -2 -45q-4 -33 -8 -51l-15 -72q-154 -6 -239 -51q-90 -47 -90 -119q0 -55 102 -127q8 -6 14 -10l62 -43q83 -58 123 -129q39 -70 39 -160q0 -193 -140 -313q-137 -119 -366 -119 q-77 0 -154 13q-76 12 -149 36l49 244q43 -23 112 -41q51 -14 107 -14q80 0 131 39t51 98q0 37 -22 72q-18 29 -101 88l-61 43q-61 41 -96 98q-31 49 -31 113q0 139 92 237.5t264 147.5q0 2 1 6t1 8v23q0 68 -41 102.5t-120 34.5q-100 0 -160 -53q-57 -51 -80 -166 l-215 -1100h-359z" />
<glyph unicode="&#xe0;" horiz-adv-x="1380" d="M35 276q0 215 166 328q164 113 477 113h211l4 28q4 20 4 21v10q0 63 -63.5 98t-184.5 35q-106 0 -215 -22q-92 -18 -201 -70l54 273q109 27 229 43q109 14 244 14q252 0 370 -86q121 -86 121 -260q0 -20 -4 -74q-2 -27 -14 -88l-125 -639h-358l30 166q-90 -102 -186 -148 q-100 -47 -213 -47q-162 0 -252 82q-94 84 -94 223zM403 340q0 -61 41 -96t111 -35q111 0 184.5 67.5t98.5 186.5l8 41h-172q-139 0 -203 -41q-68 -43 -68 -123zM448 1638h283l209 -376h-197z" />
<glyph unicode="&#xe1;" horiz-adv-x="1380" d="M35 276q0 215 166 328q164 113 477 113h211l4 28q4 20 4 21v10q0 63 -63.5 98t-184.5 35q-106 0 -215 -22q-92 -18 -201 -70l54 273q109 27 229 43q109 14 244 14q252 0 370 -86q121 -86 121 -260q0 -20 -4 -74q-2 -27 -14 -88l-125 -639h-358l30 166q-90 -102 -186 -148 q-100 -47 -213 -47q-162 0 -252 82q-94 84 -94 223zM403 340q0 -61 41 -96t111 -35q111 0 184.5 67.5t98.5 186.5l8 41h-172q-139 0 -203 -41q-68 -43 -68 -123zM645 1262l346 376h293l-438 -376h-201z" />
<glyph unicode="&#xe2;" horiz-adv-x="1380" d="M35 276q0 215 166 328q164 113 477 113h211l4 28q4 20 4 21v10q0 63 -63.5 98t-184.5 35q-106 0 -215 -22q-92 -18 -201 -70l54 273q109 27 229 43q109 14 244 14q252 0 370 -86q121 -86 121 -260q0 -20 -4 -74q-2 -27 -14 -88l-125 -639h-358l30 166q-90 -102 -186 -148 q-100 -47 -213 -47q-162 0 -252 82q-94 84 -94 223zM403 340q0 -61 41 -96t111 -35q111 0 184.5 67.5t98.5 186.5l8 41h-172q-139 0 -203 -41q-68 -43 -68 -123zM397 1262l328 376h262l182 -376h-178l-156 225l-241 -225h-197z" />
<glyph unicode="&#xe3;" horiz-adv-x="1380" d="M35 276q0 215 166 328q164 113 477 113h211l4 28q4 20 4 21v10q0 63 -63.5 98t-184.5 35q-106 0 -215 -22q-92 -18 -201 -70l54 273q109 27 229 43q109 14 244 14q252 0 370 -86q121 -86 121 -260q0 -20 -4 -74q-2 -27 -14 -88l-125 -639h-358l30 166q-90 -102 -186 -148 q-100 -47 -213 -47q-162 0 -252 82q-94 84 -94 223zM403 340q0 -61 41 -96t111 -35q111 0 184.5 67.5t98.5 186.5l8 41h-172q-139 0 -203 -41q-68 -43 -68 -123zM452 1309q27 137 93 211q65 74 159 73q31 0 70 -14q33 -12 70 -43l53 -43q16 -12 35 -23q16 -8 32 -8 q39 0 63.5 33t37.5 96h139q-25 -137 -90 -211t-160 -73q-33 0 -63.5 12t-75.5 45l-49 37q-4 4 -11 8q-35 29 -67 29q-35 0 -59 -35q-29 -39 -37 -94h-140z" />
<glyph unicode="&#xe4;" horiz-adv-x="1380" d="M35 276q0 215 166 328q164 113 477 113h211l4 28q4 20 4 21v10q0 63 -63.5 98t-184.5 35q-106 0 -215 -22q-92 -18 -201 -70l54 273q109 27 229 43q109 14 244 14q252 0 370 -86q121 -86 121 -260q0 -20 -4 -74q-2 -27 -14 -88l-125 -639h-358l30 166q-90 -102 -186 -148 q-100 -47 -213 -47q-162 0 -252 82q-94 84 -94 223zM403 340q0 -61 41 -96t111 -35q111 0 184.5 67.5t98.5 186.5l8 41h-172q-139 0 -203 -41q-68 -43 -68 -123zM491 1339l47 246h238l-49 -246h-236zM887 1339l49 246h235l-49 -246h-235z" />
<glyph unicode="&#xe5;" horiz-adv-x="1380" d="M35 276q0 215 166 328q164 113 477 113h211l4 28q4 20 4 21v10q0 63 -63.5 98t-184.5 35q-106 0 -215 -22q-92 -18 -201 -70l54 273q109 27 229 43q109 14 244 14q252 0 370 -86q121 -86 121 -260q0 -20 -4 -74q-2 -27 -14 -88l-125 -639h-358l30 166q-90 -102 -186 -148 q-100 -47 -213 -47q-162 0 -252 82q-94 84 -94 223zM403 340q0 -61 41 -96t111 -35q111 0 184.5 67.5t98.5 186.5l8 41h-172q-139 0 -203 -41q-68 -43 -68 -123zM1126 1524q0 -121 -82 -203t-202.5 -82t-202.5 82t-82 203t82 202.5t202.5 81.5t202.5 -81.5t82 -202.5z M991 1524q0 63 -43 106t-106.5 43t-106.5 -43t-43 -106.5t43 -106.5t107 -43q66 0 106 41q43 43 43 109z" />
<glyph unicode="&#xe6;" horiz-adv-x="2144" d="M35 274q0 217 166 330q164 113 481 113h205l6 28q4 16 4 21v10q0 65 -61 98q-63 35 -183 35q-109 0 -217 -22q-96 -20 -198 -70l53 273q115 27 229 43q102 14 215 14q147 0 245.5 -37t156.5 -113q92 76 202 113q106 37 236 37q224 0 356 -123q133 -123 133 -322 q0 -46 -6 -92q-8 -61 -14 -92l-14 -57h-836v-17q0 -4 -1 -10t-1 -8q0 -109 65 -164q61 -53 197 -53q113 0 236 33q121 33 264 102l-53 -278q-123 -45 -261 -72q-119 -23 -266 -23q-176 0 -291 52q-121 55 -184 155q-115 -102 -240 -155q-121 -51 -262 -52q-172 0 -266 80 q-96 80 -96 223zM403 340q0 -61 41 -96t111 -35q111 0 184.5 67.5t98.5 186.5l8 41h-172q-139 0 -203 -41q-68 -43 -68 -123zM1243 682h463q4 16 4 27q0 4 1 13t1 13q0 80 -49 127q-51 47 -129 47q-109 0 -180 -57q-74 -57 -111 -170z" />
<glyph unicode="&#xe7;" horiz-adv-x="1212" d="M76 426q0 135 53 266q51 127 150 232q104 111 249 168q141 55 326 55q82 0 170 -16.5t166 -45.5l-57 -292q-71 49 -142 73q-70 25 -137 25q-176 0 -286.5 -117t-110.5 -301q0 -117 69 -182q66 -63 195 -64q86 0 166 24.5t153 74.5l-55 -293q-94 -33 -178 -47.5 t-182 -14.5q-266 0 -406 119q-143 121 -143 336zM276 -375l29 156q35 -16 80 -27q35 -8 79 -8q66 0 105 29q37 29 37 75q0 27 -13 60q-10 27 -45 90h142q31 -43 53 -96q18 -43 18 -86q0 -104 -75.5 -161.5t-212.5 -57.5q-47 0 -97 6q-28 4 -100 20z" />
<glyph unicode="&#xe8;" horiz-adv-x="1388" d="M74 434q0 131 45 248t133 221q109 123 246 182q144 61 319 62q227 0 360.5 -121t133.5 -326q0 -41 -6 -84q-10 -74 -17 -98l-12 -57h-838q0 -2 -1 -7t-1 -10v-18q0 -109 66 -164q61 -53 196 -53q109 0 238 35q131 35 264 100l-55 -278q-123 -45 -260 -72 q-119 -23 -264 -23q-260 0 -403.5 121t-143.5 342zM487 682h463q4 16 4 27q0 4 1 13t1 13q0 80 -49 127q-51 47 -129 47q-106 0 -178 -57t-113 -170zM495 1638h283l209 -376h-197z" />
<glyph unicode="&#xe9;" horiz-adv-x="1388" d="M74 434q0 131 45 248t133 221q109 123 246 182q144 61 319 62q227 0 360.5 -121t133.5 -326q0 -41 -6 -84q-10 -74 -17 -98l-12 -57h-838q0 -2 -1 -7t-1 -10v-18q0 -109 66 -164q61 -53 196 -53q109 0 238 35q131 35 264 100l-55 -278q-123 -45 -260 -72 q-119 -23 -264 -23q-260 0 -403.5 121t-143.5 342zM487 682h463q4 16 4 27q0 4 1 13t1 13q0 80 -49 127q-51 47 -129 47q-106 0 -178 -57t-113 -170zM692 1262l346 376h293l-438 -376h-201z" />
<glyph unicode="&#xea;" horiz-adv-x="1388" d="M74 434q0 131 45 248t133 221q109 123 246 182q144 61 319 62q227 0 360.5 -121t133.5 -326q0 -41 -6 -84q-10 -74 -17 -98l-12 -57h-838q0 -2 -1 -7t-1 -10v-18q0 -109 66 -164q61 -53 196 -53q109 0 238 35q131 35 264 100l-55 -278q-123 -45 -260 -72 q-119 -23 -264 -23q-260 0 -403.5 121t-143.5 342zM487 682h463q4 16 4 27q0 4 1 13t1 13q0 80 -49 127q-51 47 -129 47q-106 0 -178 -57t-113 -170zM444 1262l328 376h262l182 -376h-178l-156 225l-241 -225h-197z" />
<glyph unicode="&#xeb;" horiz-adv-x="1388" d="M74 434q0 131 45 248t133 221q109 123 246 182q144 61 319 62q227 0 360.5 -121t133.5 -326q0 -41 -6 -84q-10 -74 -17 -98l-12 -57h-838q0 -2 -1 -7t-1 -10v-18q0 -109 66 -164q61 -53 196 -53q109 0 238 35q131 35 264 100l-55 -278q-123 -45 -260 -72 q-119 -23 -264 -23q-260 0 -403.5 121t-143.5 342zM487 682h463q4 16 4 27q0 4 1 13t1 13q0 80 -49 127q-51 47 -129 47q-106 0 -178 -57t-113 -170zM538 1339l47 246h238l-49 -246h-236zM934 1339l49 246h235l-49 -246h-235z" />
<glyph unicode="&#xec;" horiz-adv-x="700" d="M281 1120h360l-219 -1120h-359zM127 1638h283l209 -376h-197z" />
<glyph unicode="&#xed;" horiz-adv-x="700" d="M281 1120h360l-219 -1120h-359zM324 1262l346 376h293l-438 -376h-201z" />
<glyph unicode="&#xee;" horiz-adv-x="700" d="M281 1120h360l-219 -1120h-359zM76 1262l328 376h262l182 -376h-178l-156 225l-241 -225h-197z" />
<glyph unicode="&#xef;" horiz-adv-x="700" d="M281 1120h360l-219 -1120h-359zM170 1339l47 246h238l-49 -246h-236zM566 1339l49 246h235l-49 -246h-235z" />
<glyph unicode="&#xf0;" horiz-adv-x="1406" d="M74 426q0 279 182 455q180 174 475 174q49 0 92 -6q33 -4 80 -21l-151 215l-385 -108l-35 129l340 94l-137 198h352l82 -116l385 106l35 -127l-340 -94l155 -225q61 -88 96 -199q33 -104 33 -221q0 -131 -45 -252q-43 -115 -133 -221q-98 -113 -240 -176 q-133 -59 -311 -60q-242 0 -385 125q-145 127 -145 330zM449 451q0 -104 51 -166q49 -57 143 -58q139 0 229.5 127t90.5 324l-5 53v12q-55 29 -104 41q-51 12 -102 13q-139 0 -221 -94t-82 -252z" />
<glyph unicode="&#xf1;" horiz-adv-x="1456" d="M63 0l218 1120h360l-33 -164q96 96 199 144q104 47 209 47q156 0 239.5 -80t83.5 -229q0 -16 -4 -70q-2 -23 -14 -86l-133 -682h-359l113 584q14 63 19 96q6 41 6 63q0 66 -35 99q-39 35 -101 35q-111 0 -190.5 -86t-110.5 -240l-108 -551h-359zM489 1309q27 137 93 211 q65 74 159 73q31 0 70 -14q33 -12 70 -43l53 -43q16 -12 35 -23q16 -8 32 -8q39 0 63.5 33t37.5 96h139q-25 -137 -90 -211t-160 -73q-33 0 -63.5 12t-75.5 45l-49 37q-4 4 -11 8q-35 29 -67 29q-35 0 -59 -35q-29 -39 -37 -94h-140z" />
<glyph unicode="&#xf2;" horiz-adv-x="1406" d="M74 444q0 123 47 246t131 221q98 113 240 176q133 59 305 60q248 0 393 -127q143 -125 143 -346q0 -129 -45 -246q-47 -123 -131 -219q-100 -115 -242 -178q-133 -59 -309 -60q-246 0 -389 127t-143 346zM449 444q0 -106 49 -161.5t141 -55.5q139 0 229 127t90 322 q0 104 -49 159.5t-141 55.5q-141 0 -229 -125q-90 -127 -90 -322zM461 1638h283l209 -376h-197z" />
<glyph unicode="&#xf3;" horiz-adv-x="1406" d="M74 444q0 123 47 246t131 221q98 113 240 176q133 59 305 60q248 0 393 -127q143 -125 143 -346q0 -129 -45 -246q-47 -123 -131 -219q-100 -115 -242 -178q-133 -59 -309 -60q-246 0 -389 127t-143 346zM449 444q0 -106 49 -161.5t141 -55.5q139 0 229 127t90 322 q0 104 -49 159.5t-141 55.5q-141 0 -229 -125q-90 -127 -90 -322zM658 1262l346 376h293l-438 -376h-201z" />
<glyph unicode="&#xf4;" horiz-adv-x="1406" d="M74 444q0 123 47 246t131 221q98 113 240 176q133 59 305 60q248 0 393 -127q143 -125 143 -346q0 -129 -45 -246q-47 -123 -131 -219q-100 -115 -242 -178q-133 -59 -309 -60q-246 0 -389 127t-143 346zM449 444q0 -106 49 -161.5t141 -55.5q139 0 229 127t90 322 q0 104 -49 159.5t-141 55.5q-141 0 -229 -125q-90 -127 -90 -322zM410 1262l328 376h262l182 -376h-178l-156 225l-241 -225h-197z" />
<glyph unicode="&#xf5;" horiz-adv-x="1406" d="M74 444q0 123 47 246t131 221q98 113 240 176q133 59 305 60q248 0 393 -127q143 -125 143 -346q0 -129 -45 -246q-47 -123 -131 -219q-100 -115 -242 -178q-133 -59 -309 -60q-246 0 -389 127t-143 346zM449 444q0 -106 49 -161.5t141 -55.5q139 0 229 127t90 322 q0 104 -49 159.5t-141 55.5q-141 0 -229 -125q-90 -127 -90 -322zM465 1309q27 137 93 211q65 74 159 73q31 0 70 -14q33 -12 70 -43l53 -43q16 -12 35 -23q16 -8 32 -8q39 0 63.5 33t37.5 96h139q-25 -137 -90 -211t-160 -73q-33 0 -63.5 12t-75.5 45l-49 37q-4 4 -11 8 q-35 29 -67 29q-35 0 -59 -35q-29 -39 -37 -94h-140z" />
<glyph unicode="&#xf6;" horiz-adv-x="1406" d="M74 444q0 123 47 246t131 221q98 113 240 176q133 59 305 60q248 0 393 -127q143 -125 143 -346q0 -129 -45 -246q-47 -123 -131 -219q-100 -115 -242 -178q-133 -59 -309 -60q-246 0 -389 127t-143 346zM449 444q0 -106 49 -161.5t141 -55.5q139 0 229 127t90 322 q0 104 -49 159.5t-141 55.5q-141 0 -229 -125q-90 -127 -90 -322zM504 1339l47 246h238l-49 -246h-236zM900 1339l49 246h235l-49 -246h-235z" />
<glyph unicode="&#xf7;" horiz-adv-x="1714" d="M217 524v236h1282v-236h-1282zM705 86v309h307v-309h-307zM705 889v309h307v-309h-307z" />
<glyph unicode="&#xf8;" horiz-adv-x="1406" d="M-35 10l187 164q-37 55 -58 127q-20 76 -20 145q0 129 45 246q43 115 133 219q102 119 240 176q141 59 309 60q100 0 190 -23q82 -20 154 -69l192 168l97 -111l-183 -162q39 -55 62 -129q20 -63 20 -147q0 -129 -45 -246q-47 -123 -131 -219q-98 -115 -242 -176 q-141 -61 -309 -62q-111 0 -196 25q-90 25 -156 74l-193 -172zM449 438l456 404q-20 23 -57 37q-34 12 -80 12q-139 0 -225 -119q-84 -119 -94 -334zM498 283q20 -23 59 -41q31 -14 82 -15q141 0 227 123t92 342z" />
<glyph unicode="&#xf9;" horiz-adv-x="1456" d="M123 281q0 20 4 73q2 39 12 82l131 684h359l-113 -583q-14 -63 -18 -97q-6 -39 -6 -63q0 -63 34.5 -98t100.5 -35q111 0 190.5 86t110.5 239l108 551h359l-217 -1120h-361l33 164q-90 -96 -193 -146q-96 -47 -213 -47q-154 0 -237.5 80t-83.5 230zM485 1638h283l209 -376 h-197z" />
<glyph unicode="&#xfa;" horiz-adv-x="1456" d="M123 281q0 20 4 73q2 39 12 82l131 684h359l-113 -583q-14 -63 -18 -97q-6 -39 -6 -63q0 -63 34.5 -98t100.5 -35q111 0 190.5 86t110.5 239l108 551h359l-217 -1120h-361l33 164q-90 -96 -193 -146q-96 -47 -213 -47q-154 0 -237.5 80t-83.5 230zM682 1262l346 376h293 l-438 -376h-201z" />
<glyph unicode="&#xfb;" horiz-adv-x="1456" d="M123 281q0 20 4 73q2 39 12 82l131 684h359l-113 -583q-14 -63 -18 -97q-6 -39 -6 -63q0 -63 34.5 -98t100.5 -35q111 0 190.5 86t110.5 239l108 551h359l-217 -1120h-361l33 164q-90 -96 -193 -146q-96 -47 -213 -47q-154 0 -237.5 80t-83.5 230zM434 1262l328 376h262 l182 -376h-178l-156 225l-241 -225h-197z" />
<glyph unicode="&#xfc;" horiz-adv-x="1456" d="M123 281q0 20 4 73q2 39 12 82l131 684h359l-113 -583q-14 -63 -18 -97q-6 -39 -6 -63q0 -63 34.5 -98t100.5 -35q111 0 190.5 86t110.5 239l108 551h359l-217 -1120h-361l33 164q-90 -96 -193 -146q-96 -47 -213 -47q-154 0 -237.5 80t-83.5 230zM528 1339l47 246h238 l-49 -246h-236zM924 1339l49 246h235l-49 -246h-235z" />
<glyph unicode="&#xfd;" horiz-adv-x="1333" d="M0 -442l37 235h113q92 0 137 29q49 31 86 104l33 60l-271 1134h338l154 -776l397 776h383l-709 -1226q-120 -206 -221 -271q-102 -66 -260 -65h-217zM621 1262l346 376h293l-438 -376h-201z" />
<glyph unicode="&#xfe;" horiz-adv-x="1464" d="M-20 -426l385 1982h360l-117 -600q82 96 172 143.5t197 47.5q188 0 299 -121q111 -120 110 -326q0 -133 -38 -251q-39 -117 -111 -222q-92 -127 -205 -190q-115 -66 -246 -66q-115 0 -196 47q-80 47 -135 144l-115 -588h-360zM518 428q0 -92 49 -145q49 -51 138 -52 q135 0 223 125t88 322q0 102 -47 155.5t-138 53.5q-141 0 -225 -127q-88 -133 -88 -332z" />
<glyph unicode="&#xff;" horiz-adv-x="1333" d="M0 -442l37 235h113q92 0 137 29q49 31 86 104l33 60l-271 1134h338l154 -776l397 776h383l-709 -1226q-120 -206 -221 -271q-102 -66 -260 -65h-217zM467 1339l47 246h238l-49 -246h-236zM863 1339l49 246h235l-49 -246h-235z" />
<glyph unicode="&#x131;" horiz-adv-x="700" d="M281 1120h360l-219 -1120h-359z" />
<glyph unicode="&#x152;" horiz-adv-x="2387" d="M86 575q0 238 119 447q117 205 325 328q133 76 285 108q162 35 363 35h57h1128l-57 -291h-651l-56 -278h615l-57 -291h-615l-65 -342h675l-57 -291h-1159h-55q-375 0 -586 152q-209 150 -209 423zM489 647q0 -184 121 -270q120 -86 375 -86h107l176 911h-105 q-139 0 -243 -24q-109 -25 -181 -72q-117 -76 -182 -199q-68 -125 -68 -260z" />
<glyph unicode="&#x153;" horiz-adv-x="2240" d="M74 444q0 131 45 248q47 123 131 219q102 119 242 176q143 59 311 60q137 0 241 -41q100 -39 166 -121q98 82 207 121q117 41 252 41q224 0 356 -123q133 -123 134 -322q0 -40 -7 -86q-8 -66 -16 -98l-12 -57h-838q0 -2 -1 -7t-1 -10v-18q0 -109 66 -164q61 -53 196 -53 q109 0 238 35q131 35 264 100l-55 -278q-123 -45 -260 -72q-119 -23 -267 -23q-158 0 -256 39q-100 39 -157 121q-86 -80 -197 -121q-104 -39 -244 -39q-250 0 -395 127q-143 125 -143 346zM449 444q0 -106 49 -161.5t141 -55.5q139 0 229 127t90 322q0 104 -49 159.5 t-141 55.5q-141 0 -229 -125q-90 -127 -90 -322zM1333 682h465q4 16 4 27q0 4 1 13t1 13q0 80 -49 127q-51 47 -129 47q-102 0 -180 -59q-76 -57 -113 -168z" />
<glyph unicode="&#x178;" horiz-adv-x="1482" d="M129 1493h385l254 -553l444 553h445l-737 -870l-121 -623h-385l121 623zM633 1899h236l-47 -246h-236zM1028 1899h238l-49 -246h-236z" />
<glyph unicode="&#x2c6;" horiz-adv-x="1024" d="M217 1262l328 376h262l182 -376h-178l-156 225l-241 -225h-197z" />
<glyph unicode="&#x2da;" horiz-adv-x="1024" d="M946 1524q0 -121 -82 -203t-202.5 -82t-202.5 82t-82 203t82 202.5t202.5 81.5t202.5 -81.5t82 -202.5zM811 1524q0 63 -43 106t-106.5 43t-106.5 -43t-43 -106.5t43 -106.5t107 -43q66 0 106 41q43 43 43 109z" />
<glyph unicode="&#x2dc;" horiz-adv-x="1024" d="M272 1309q27 137 93 211q65 74 159 73q31 0 70 -14q33 -12 70 -43l53 -43q16 -12 35 -23q16 -8 32 -8q39 0 63.5 33t37.5 96h139q-25 -137 -90 -211t-160 -73q-33 0 -63.5 12t-75.5 45l-49 37q-4 4 -11 8q-35 29 -67 29q-35 0 -59 -35q-29 -39 -37 -94h-140z" />
<glyph unicode="&#x2000;" horiz-adv-x="948" />
<glyph unicode="&#x2001;" horiz-adv-x="1900" />
<glyph unicode="&#x2002;" horiz-adv-x="948" />
<glyph unicode="&#x2003;" horiz-adv-x="1900" />
<glyph unicode="&#x2004;" horiz-adv-x="632" />
<glyph unicode="&#x2005;" horiz-adv-x="473" />
<glyph unicode="&#x2006;" horiz-adv-x="315" />
<glyph unicode="&#x2007;" horiz-adv-x="315" />
<glyph unicode="&#x2008;" horiz-adv-x="235" />
<glyph unicode="&#x2009;" horiz-adv-x="378" />
<glyph unicode="&#x200a;" horiz-adv-x="104" />
<glyph unicode="&#x2010;" horiz-adv-x="849" d="M51 444l58 291h628l-57 -291h-629z" />
<glyph unicode="&#x2011;" horiz-adv-x="849" d="M51 444l58 291h628l-57 -291h-629z" />
<glyph unicode="&#x2012;" horiz-adv-x="849" d="M51 444l58 291h628l-57 -291h-629z" />
<glyph unicode="&#x2013;" horiz-adv-x="1024" d="M-61 432l51 258h1024l-51 -258h-1024z" />
<glyph unicode="&#x2014;" horiz-adv-x="2048" d="M-61 432l51 258h2048l-51 -258h-2048z" />
<glyph unicode="&#x2018;" horiz-adv-x="776" d="M231 856l58 285l295 352h213l-170 -352l-56 -285h-340z" />
<glyph unicode="&#x2019;" horiz-adv-x="776" d="M150 856l169 352l56 285h340l-56 -285l-297 -352h-212z" />
<glyph unicode="&#x201a;" horiz-adv-x="776" d="M-70 -250l170 352l56 285h340l-56 -285l-297 -352h-213z" />
<glyph unicode="&#x201c;" horiz-adv-x="1318" d="M231 856l58 285l295 352h213l-170 -352l-56 -285h-340zM772 856l55 285l295 352h213l-168 -352l-55 -285h-340z" />
<glyph unicode="&#x201d;" horiz-adv-x="1318" d="M150 856l169 352l56 285h340l-56 -285l-297 -352h-212zM690 856l168 352l55 285h340l-55 -285l-295 -352h-213z" />
<glyph unicode="&#x201e;" horiz-adv-x="1318" d="M-70 -250l170 352l56 285h340l-56 -285l-297 -352h-213zM471 -250l168 352l55 285h340l-55 -285l-295 -352h-213z" />
<glyph unicode="&#x2022;" horiz-adv-x="1308" d="M295 762q0 78 27 139q31 70 77 115q49 49 117 78q61 27 139 26q76 0 138 -26q68 -29 116.5 -78t77.5 -117q27 -61 27 -137q0 -78 -27 -139q-29 -68 -78 -117t-116 -78q-61 -27 -139.5 -27t-139.5 27q-63 27 -115 78q-51 53 -77 117q-27 61 -27 139z" />
<glyph unicode="&#x2026;" horiz-adv-x="2048" d="M94 0l76 387h360l-75 -387h-361zM729 0l76 387h360l-75 -387h-361zM1364 0l76 387h360l-76 -387h-360z" />
<glyph unicode="&#x202f;" horiz-adv-x="378" />
<glyph unicode="&#x2039;" horiz-adv-x="843" d="M125 506l37 186l565 371l-49 -252l-346 -229l258 -222l-43 -223z" />
<glyph unicode="&#x203a;" horiz-adv-x="843" d="M78 135l49 254l344 229l-256 222l43 223l420 -371l-35 -186z" />
<glyph unicode="&#x205f;" horiz-adv-x="473" />
<glyph unicode="&#x20ac;" d="M-84 477l88 195h139q0 4 2 28.5t5 38.5q8 41 18 82h-176l86 195h155q100 236 302 368q203 135 448 136q111 0 211 -27q102 -27 213 -84l-55 -309q-88 84 -168 119q-90 39 -187 38q-111 0 -209 -63q-96 -63 -163 -178h497l-86 -195h-483l-12 -69q-4 -27 -9 -80h439 l-88 -195h-338q25 -121 102.5 -182.5t198.5 -61.5q92 0 196 43q94 39 207 125l-59 -331q-121 -49 -238 -74q-113 -25 -217 -25q-248 0 -399 131q-154 132 -191 375h-229z" />
<glyph unicode="&#x2122;" horiz-adv-x="2048" d="M295 1350v143h518v-143h-174v-435h-172v435h-172zM926 915v578h227l119 -227l119 227h227v-578h-170v437l-137 -256h-76l-137 256v-437h-172z" />
<glyph unicode="&#xe000;" horiz-adv-x="1120" d="M0 1120h1120v-1120h-1120v1120z" />
<glyph unicode="&#xfb01;" horiz-adv-x="1611" d="M102 864l50 256h176l16 78q37 186 153.5 272t333.5 86h275l-47 -235h-197q-78 0 -110 -27q-35 -29 -47 -96l-17 -78h303l-49 -256h-303l-168 -864h-360l168 864h-177zM973 0l217 1120h360l-219 -1120h-358zM1217 1264l57 292h360l-57 -292h-360z" />
<glyph unicode="&#xfb02;" horiz-adv-x="1611" d="M102 864l50 256h176l16 78q37 186 153.5 272t333.5 86h803l-303 -1556h-358l254 1321h-365q-78 0 -110 -27q-35 -29 -47 -96l-17 -78h303l-49 -256h-303l-168 -864h-360l168 864h-177z" />
<glyph unicode="&#xfb03;" horiz-adv-x="2482" d="M1845 0l218 1120h360l-219 -1120h-359zM2089 1264l58 292h360l-57 -292h-361zM993 864l50 256h176l16 78q37 186 153.5 272t333.5 86h275l-47 -235h-197q-78 0 -110 -27q-35 -29 -47 -96l-17 -78h303l-49 -256h-303l-168 -864h-360l168 864h-177zM102 864l50 256h176 l16 78q37 186 153.5 272t333.5 86h275l-47 -235h-197q-78 0 -110 -27q-35 -29 -47 -96l-17 -78h303l-49 -256h-303l-168 -864h-360l168 864h-177z" />
<glyph unicode="&#xfb04;" horiz-adv-x="2482" d="M1845 0l302 1556h360l-303 -1556h-359zM993 864l50 256h176l16 78q37 186 153.5 272t333.5 86h275l-47 -235h-197q-78 0 -110 -27q-35 -29 -47 -96l-17 -78h303l-49 -256h-303l-168 -864h-360l168 864h-177zM102 864l50 256h176l16 78q37 186 153.5 272t333.5 86h275 l-47 -235h-197q-78 0 -110 -27q-35 -29 -47 -96l-17 -78h303l-49 -256h-303l-168 -864h-360l168 864h-177z" />
<glyph horiz-adv-x="1024" d="M346 1526h236l-47 -246h-236zM741 1526h238l-49 -246h-236z" />
<glyph horiz-adv-x="1024" d="M711 1526h280l-319 -264h-207z" />
<glyph horiz-adv-x="1024" d="M618 1313l-49 37q-29 23 -41 26q-16 6 -34 6q-35 0 -62 -32q-25 -31 -37 -88h-137q25 125 92 196q66 70 160 70q35 0 70 -12q37 -12 67 -39l53 -41q20 -16 33 -21q18 -6 35 -6q39 0 66 31q29 31 36 88h138q-25 -127 -90.5 -196.5t-159.5 -69.5q-39 0 -70 12 q-39 14 -70 39z" />
<glyph horiz-adv-x="1024" d="M616 1526l144 -264h-178l-230 264h264z" />
<glyph horiz-adv-x="1024" d="M475 1526h348l152 -264h-170l-164 161l-231 -161h-179z" />
</font>
</defs>
</svg>
